Learn Drupal 7 Development - Theming Essentials
Flash Video | English | MP4 | 960 x 600 | AVC ~140 kbps | 8.000 fps
AAC | 82.4 kbps | 48.0 KHz | 2 channels | 8 hours | 792 MB
Genre: Video Training


In this collection, we introduce you to the techniques you need to track down the source of any output in Drupal and adjust it in an organized, predictable way. We also really flex Drupal's theming system to do things like: Build a theme from scratch, create a sub-theme and clone a theme; Add new theme settings (including color pickers); Override page, block and node templates.

 


Download

Includes:
1. Important Drupal Theming Concepts
2. How to Build and Modify a Drupal Theme or Sub-Theme, Part 1
3. How to Build and Modify a Drupal Theme or Sub-Theme, Part 2
4. Theme CSS File Structure and Extended Drupal Theme Building
5. Template Files, Theme Function Overrides and Pre-processing Functions
6. How to Work With Drupal Theme Settings

MediaInfo:

General
Complete name : 08.mp4
Format : MPEG-4
Format profile : Base Media
Codec ID : isom
File size : 9.52 MiB
Duration : 5mn 52s
Overall bit rate : 227 Kbps
Movie name : 08. How to use simple preprocessing functions
Album : 05. Template Files, Theme Function Overrides and Preprocessing Functions - Drupal Theming Essentials
Track name/Position : 8
Track name/Total : 0
Performer : Chris Shattuck
Screenplay by : Chris Shattuck
Genre : Education
Encoded date : 20110416
Tagged date : UTC 1970-01-01 00:00:00
Writing application : Lavf52.92.0
Copyright : 2011 Build a Module.com
Comment : How to build or modify a theme in Drupal 7. We discuss various methods to modify Drupal output, how to decide which to use, and work through several practical applications of useful techniques.
desc : How to build or modify a theme in Drupal 7. We discuss various methods to modify Drupal output, how to decide which to use, and work through several practical applications of useful techniques.
tvsh : 05. Template Files, Theme Function Overrides and Preprocessing Functions - Drupal Theming Essentials
tven : 8
Video #1
ID : 1
Format : AVC
Format/Info : Advanced Video Codec
Format profile : [email protected]
Format settings, CABAC : Yes
Format settings, ReFrames : 5 frames
Codec ID : avc1
Codec ID/Info : Advanced Video Coding
Duration : 5mn 52s
Bit rate mode : Variable
Bit rate : 140 Kbps
Width : 960 pixels
Height : 600 pixels
Display aspect ratio : 1.600
Frame rate mode : Constant
Frame rate : 8.000 fps
Resolution : 24 bits
Colorimetry : 4:2:0
Scan type : Progressive
Bits/(Pixel*Frame) : 0.030
Stream size : 5.89 MiB (62%)
Writing library : x264 core 112 r1834 a51816a
Encoding settings : cabac=1 / ref=5 / deblock=1:0:0 / analyse=0x3:0x113 / me=umh / subme=8 / psy=1 / psy_rd=1.00:0.00 / mixed_ref=1 / me_range=16 / chroma_me=1 / trellis=1 / 8x8dct=1 / cqm=0 / deadzone=21,11 / fast_pskip=1 / chroma_qp_offset=-2 / threads=3 / sliced_threads=0 / nr=0 / decimate=1 / interlaced=0 / constrained_intra=0 / bframes=3 / b_pyramLanguage : English
Encoded date : UTC 1970-01-01 00:00:00
Tagged date : UTC 1970-01-01 00:00:00
Audio #2
ID : 2
Format : AAC
Format/Info : Advanced Audio Codec
Format version : Version 4
Format profile : LC
Format settings, SBR : No
Format settings, PS : Yes
Codec ID : 40
Duration : 5mn 52s
Bit rate mode : Variable
Bit rate : 82.4 Kbps
Channel(s) : 2 channels
Channel positions : Front: L R
Sampling rate : 48.0 KHz
Resolution : 16 bits
Stream size : 3.46 MiB (36%)
Language : English
Encoded date : UTC 1970-01-01 00:00:00
Tagged date : UTC 1970-01-01 00:00:00

Learn Drupal 7 Development : Theming Essentials



 

Download


 TO MAC USERS: If RAR password doesn't work, use this archive program: 

RAR Expander 0.8.5 Beta 4  and extract password protected files without error.


 TO WIN USERS: If RAR password doesn't work, use this archive program: 

Latest Winrar  and extract password protected files without error.


 zhenia   |  

Information
Members of Guests cannot leave comments.


Udemy - Turkce Gorsel Ogrenme Setleri
Videohive Wow Pack Series


rss